请选择 进入手机版 | 继续访问电脑版

车载MV下载,车载音乐下载,车载CD下载

 找回密码
 立即注册
查看: 465|回复: 0

黄凯芹 - 给您留念(2003)[FLAC 24bits-88.2kHz]

[复制链接]
发表于 2023-12-28 21:43:12 | 显示全部楼层 |阅读模式

CD.jpg
Cover.jpg
Back.jpg


歌手:黄凯芹
语言:粤语
唱片公司:宝丽金
发行时间:1990
专辑类别:精选集
格式:SACD-ISO
大小:2.13GB

专辑介绍:

黄凯芹,香港著名歌手、电台DJ,1987年出版第一张唱片,他是香港难得的具有诗人气质的男歌手,创作禀赋非常,词曲俱佳,亦喜舞文弄墨,擅写散文、小说。他在香港乐坛最鼎盛的时期出现,又在另一高峰来临之

专辑曲目:

01.情深缘浅
02.给您留念
03.伤感的恋人
04.伴侣
05.若生命等候
06.流离所爱
07.没结果的一些感情
08.再遇
09.感受
10.焚情
11.再恋
12.呼号


foobar2000 1.6.16 / Dynamic Range Meter 1.1.1
log date: 2023-11-11 17:03:12

--------------------------------------------------------------------------------
Analyzed: 黃凱芹 & 余劍明 / 給您留念 (1)
          黃凱芹 / 給您留念 (2-12)
--------------------------------------------------------------------------------

DR         Peak         RMS     Duration Track
--------------------------------------------------------------------------------
DR11      -1.75 dB   -16.55 dB      4:46 ?-流離所愛
DR12      -0.99 dB   -16.43 dB      5:04 ?-情深緣淺
DR13      -1.02 dB   -17.25 dB      3:53 ?-給您留念
DR13      -2.01 dB   -18.81 dB      4:12 ?-傷感的戀人
DR11      -0.97 dB   -15.73 dB      4:34 ?-伴侶
DR11      -0.93 dB   -15.48 dB      4:12 ?-若生命等候
DR11      -0.98 dB   -15.98 dB      4:45 ?-沒結果的一些感情
DR12      -0.19 dB   -16.03 dB      4:29 ?-再遇
DR13      -0.01 dB   -18.64 dB      4:18 ?-感受
DR12      -0.99 dB   -15.45 dB      4:09 ?-焚情
DR11      -1.00 dB   -17.12 dB      4:52 ?-再戀
DR12      -0.92 dB   -15.03 dB      3:52 ?-呼號
--------------------------------------------------------------------------------

Number of tracks:  12
Official DR value: DR12

Samplerate:        88200 Hz
Channels:          2
Bits per sample:   24
Bitrate:           2667 kbps
Codec:             FLAC
================================================================================



Disc Information:

        Version:  1.20
        Creation date: 2003-11-28
        Catalog Number: 842 217 -2 (A)  
        Locale: en
        Title: For Your Memory
        Artist: Christopher Wong
        Publisher: Universal Music Ltd
        Copyright: Universal Music Ltd

Album Information:

        Catalog Number: 842 217 -2 (A)  
        Sequence Number: 1
        Set Size: 1
        Locale: en
        Title: For Your Memory
        Artist: Christopher Wong
        Publisher: Universal Music Ltd
        Copyright: Universal Music Ltd

Area count: 1
        Area Information [0]:

        Version:  1.20
        Track Count: 12
        Speaker config: 2 Channel
        Track list [0]:
                Title[0]: At Last I Know
                Performer[0]: Christopher Wong
                Title[1]: For Your Memory
                Performer[1]: Christopher Wong
                Title[2]: Sentimental Lovers
                Performer[2]: Christopher Wong
                Title[3]: Companion
                Performer[3]: Christopher Wong
                Title[4]: Life Is A Question
                Performer[4]: Christopher Wong
                Title[5]: Homeless Love
                Performer[5]: Christopher Wong
                Title[6]: Rootless Passion
                Performer[6]: Christopher Wong
                Title[7]: Encounter
                Performer[7]: Christopher Wong
                Title[8]: Feeling Warm
                Performer[8]: Christopher Wong
                Title[9]: Burning Love
                Performer[9]: Christopher Wong
                Title[10]: Fall In Love Again
                Performer[10]: Christopher Wong
                Title[11]: Roar
                Performer[11]: Christopher Wong
        ISRC Track [0]:
          Country: HK, Owner: A61, Year: 00, Designation: 00609
        ISRC Track [1]:
          Country: HK, Owner: A61, Year: 03, Designation: 00414
        ISRC Track [2]:
          Country: HK, Owner: A61, Year: 99, Designation: 00498
        ISRC Track [3]:
          Country: HK, Owner: A61, Year: 01, Designation: 00126
        ISRC Track [4]:
          Country: HK, Owner: A61, Year: 01, Designation: 00127
        ISRC Track [5]:
          Country: HK, Owner: A61, Year: 99, Designation: 00502
        ISRC Track [6]:
          Country: HK, Owner: A61, Year: 99, Designation: 00508
        ISRC Track [7]:
          Country: HK, Owner: A61, Year: 00, Designation: 00613
        ISRC Track [8]:
          Country: HK, Owner: A61, Year: 01, Designation: 00128
        ISRC Track [9]:
          Country: HK, Owner: A61, Year: 02, Designation: 00131
        ISRC Track [10]:
          Country: HK, Owner: A61, Year: 00, Designation: 00620
        ISRC Track [11]:
          Country: HK, Owner: A61, Year: 02, Designation: 00132



购买主题 本主题需向作者支付 5 金币 才能浏览
回复

使用道具 举报

您需要登录后才可以回帖 登录 | 立即注册

本版积分规则

Archiver|手机版|小黑屋|车载MV下载,车载影音下载,车载MP4下载

GMT+8, 2024-6-19 15:16 , Processed in 0.015253 second(s), 10 queries , MemCached On.

Powered by Discuz! X3.4

© 2001-2023 Discuz! Team.

快速回复 返回顶部 返回列表