请选择 进入手机版 | 继续访问电脑版

车载MV下载,车载音乐下载,车载CD下载

 找回密码
 立即注册
查看: 484|回复: 0

[发烧天碟] 黄晓明 - Its Ming[wav原抓整轨]

[复制链接]
发表于 2023-12-28 21:51:38 | 显示全部楼层 |阅读模式


cover.jpg

PERFORMER "黄晓明"
TITLE "IT'S MING"
REM DISCID 8C0B250B
REM COMMENT "ExactAudioCopy v0.99pb5"
FILE "黄晓明 - It's Ming.wav" WAVE
  TRACK 01 AUDIO
    TITLE "暗恋"
    PERFORMER "黄晓明"
    REM DATE 2007
    INDEX 01 00:00:00
  TRACK 02 AUDIO
    TITLE "My Girl"
    PERFORMER "黄晓明"
    REM DATE 2007
    INDEX 01 03:25:50
  TRACK 03 AUDIO
    TITLE "什么都可以"
    PERFORMER "黄晓明"
    REM DATE 2007
    INDEX 01 07:09:03
  TRACK 04 AUDIO
    TITLE "风的孩子"
    PERFORMER "黄晓明"
    REM DATE 2007
    INDEX 01 12:05:58
  TRACK 05 AUDIO
    TITLE "没有你我爱谁"
    PERFORMER "黄晓明"
    REM DATE 2007
    INDEX 01 17:39:03
  TRACK 06 AUDIO
    TITLE "天蝎情人"
    PERFORMER "黄晓明"
    REM DATE 2007
    INDEX 01 21:29:38
  TRACK 07 AUDIO
    TITLE "酿酒"
    PERFORMER "黄晓明"
    REM DATE 2007
    INDEX 01 24:51:41
  TRACK 08 AUDIO
    TITLE "因为有你"
    PERFORMER "黄晓明"
    REM DATE 2007
    INDEX 01 29:54:09
  TRACK 09 AUDIO
    TITLE "安静的想你"
    PERFORMER "黄晓明"
    REM DATE 2007
    INDEX 01 34:26:12
  TRACK 10 AUDIO
    TITLE "I'm Coming"
    PERFORMER "黄晓明"
    REM DATE 2007
    INDEX 01 38:26:70
  TRACK 11 AUDIO
    TITLE "就算没有明天"
    PERFORMER "黄晓明&孙俪"
    REM DATE 2007
    INDEX 01 42:13:05


购买主题 本主题需向作者支付 5 金币 才能浏览
回复

使用道具 举报

您需要登录后才可以回帖 登录 | 立即注册

本版积分规则

Archiver|手机版|小黑屋|车载MV下载,车载影音下载,车载MP4下载

GMT+8, 2024-6-19 16:40 , Processed in 0.015758 second(s), 10 queries , MemCached On.

Powered by Discuz! X3.4

© 2001-2023 Discuz! Team.

快速回复 返回顶部 返回列表